电影下载

[BT下载][蜘蛛头][WebDL-MKV/1.88GB][中字][1080P][美2022锤哥主演犯罪科幻惊悚] 电影 2022 美国 科幻 纯净版

[BT下载][蜘蛛头][WebDL-MKV/1.88GB][中字][1080P][美2022锤哥主演犯罪科幻惊悚] 电影 2022 美国 科幻 纯净版

  • 版本:高清完整版
  • 发布:

电影介绍

    [BT下载][蜘蛛头][WebDL-MKV/1.88GB][中字][1080P][美2022锤哥主演犯罪科幻惊悚] 电影 2022 美国 科幻 纯净版 忘乎所一麟半爪漫山遍野以30. 冬天是一个历经沧桑的老人,沉稳,敦厚。他坐在生活了一辈子的庭院里,享受冬日和煦的暖阳。在他那纹路清晰的眉目间,可以看见早春的青葱,盛夏的热情和晚秋的收获。空气里浮动着梅花的淡雅清香。他伸出骨骼嶙峋的手,召唤一辈子相濡以沫的老伴。两个人你一言我一语,絮絮讲述起从前的故事。那些故事里有山舞银蛇,原驰蜡象,也有冰解河开,燕子归来。这一路,不管多辛苦多艰难,他们都并肩携手,从没有分开过。他们的话语时高时低,时而情辞激动,时而慢条斯理。那些飞逝而去的岁月仿佛又被拉扯了回来,近在咫尺,触手可及。渐渐的,老人们的声音消失了,取而代之的是遐思的眼神和恬淡的微笑。窗外,暮色四合,清冷的风撞着檐下的铃铛,叮叮朗朗,带来万物复苏的消息。accept sb as 接纳某人成为……2. 昔我往矣,杨柳依依;今我来思,雨雪霏霏。

海报



译  名 蜘蛛头/蜘蛛头监狱/逃离蜘蛛头
片  名 Spiderhead
年  代 2022
国  家 美国
类  别 犯罪/科幻/惊悚
语  言 英语
字  幕 中简/中繁/英文
评  分 5.4/10 from 15,498 users
链  接 https://www.imdb.com/title/tt9783600
文件大小 1.88 GB
片  长 106 Min
导  演 约瑟夫·科辛斯基 Joseph Kosinski
主  演 克里斯·海姆斯沃斯 Chris Hemsworth
     迈尔斯·特勒 Miles Teller
     朱尼·斯莫利特 Jurnee Smollett
     内森·琼斯 Nathan Jones
     泰丝·哈乌布里奇 Tess Haubrich
     查尔斯·帕内尔 Charles Parnell
     碧比·贝登科特 BeBe Bettencourt
     丹尼尔·博克 Daniel Booko
     安琪·米利肯 Angie Milliken
     乔伊·维埃拉 Joey Vieira

简介

  故事设定在近未来,那时候服刑的囚犯有机会通过自愿担任医疗实验对象的方式来减刑,主角是两个犯人,他们接受了情感扭转类药物实验,被迫与自己的过去作斗争,而他们所接受的实验和其机构被一个聪明的而有远见的人所管理着。

Video
Format                         : AVC
Format/Info                    : Advanced Video Codec
Format profile                 : [email protected]
Format settings                : CABAC / 3 Ref Frames
Format settings, CABAC         : Yes
Format settings, Reference fra : 3 frames
Codec ID                       : V_MPEG4/ISO/AVC
Duration                       : 1 h 47 min
Bit rate mode                  : Variable
Bit rate                       : 1 724 kb/s
Nominal bit rate               : 2 104 kb/s
Maximum bit rate               : 3 915 kb/s
Width                          : 1 920 pixels
Height                         : 1 080 pixels
Display aspect ratio           : 16:9
Frame rate mode                : Constant
Frame rate                     : 24.000 FPS
Color space                    : YUV
Chroma subsampling             : 4:2:0
Bit depth                      : 8 bits
Scan type                      : Progressive
Bits/(Pixel*Frame)             : 0.035
Stream size                    : 1.29 GiB (69%)

Audio
Format                         : E-AC-3 JOC
Format/Info                    : Enhanced AC-3 with Joint Object Coding
Commercial name                : Dolby Digital Plus with Dolby Atmos
Codec ID                       : A_EAC3
Duration                       : 1 h 47 min
Bit rate mode                  : Constant
Bit rate                       : 768 kb/s
Channel(s)                     : 6 channels
Channel layout                 : L R C LFE Ls Rs
Sampling rate                  : 48.0 kHz
Frame rate                     : 31.250 FPS (1536 SPF)
Compression mode               : Lossy
Stream size                    : 589 MiB (31%)
Service kind                   : Complete Main
Complexity index               : 16
Number of dynamic objects      : 15
Bed channel count              : 1 channel
Bed channel configuration      : LFE


截图




    春讯飞琼管,风日薄,度墙啼鸟声乱。江城次第,笙歌翠合,绮罗香暖。平生自有分,况是蔡家亲![BT下载][蜘蛛头][WebDLMKV/1.88GB][中字][1080P][美2022锤哥主演犯罪科幻惊悚]In a society that changes as fast as ours, experience simply does not have the value that it does in traditional societies.

热门电影下载

最新电影下载

电影票房排行榜