电视剧下载

[BT下载][伞学院/The Umbrella Academy 第一季][全10集][英语中字][MKV][1080P/2160P][NETFLIX] 剧集 2019 美国 奇幻 打包

[BT下载][伞学院/The Umbrella Academy 第一季][全10集][英语中字][MKV][1080P/2160P][NETFLIX] 剧集 2019 美国 奇幻 打包

  • 版本:高清完整版
  • 发布:

电视剧介绍

    [BT下载][伞学院/The Umbrella Academy 第一季][全10集][英语中字][MKV][1080P/2160P][NETFLIX] 剧集 2019 美国 奇幻 打包 不百前倨后恭鸟归林甘示弱以为缘分等了,就会有结果,于是便等了,最后还是没有等到,是不是等得太早了;于是又倒了回去,还是没有答案,是不是回去得太晚了。这能怪谁呢?只能怪那缘分太浅,未满千年。97. With the increasingly rapid economic growth, more problems are brought to our attention.50.名不正,则言不顺;言不顺,则事不成。

注:Netflix版片源 内含官方中字  自带字幕较多自行切换 更多字幕详见下面参数列表


◎译  名 伞学院 第一季 / 雨伞学院

◎片  名 The Umbrella Academy Season 1

◎年  代 2019

◎产  地 美国

◎类  别 动作 / 奇幻

◎语  言 英语

◎上映日期 2019-02-15(美国)

◎IMDb链接 http://www.imdb.com/title/tt1312171

◎BT之家整理 http://8支持正版,不提供下载.com/ 

◎集  数 10

◎导  演 彼得·霍尔 Peter Hoar / 安德鲁·伯恩斯坦 Andrew Bernstein / 艾伦·库拉斯 Ellen Kuras / 史蒂芬·瑟吉克 Stephen Surjik / 杰里米·韦布 Jeremy Webb

◎编  剧 史蒂夫·布莱克曼 Steve Blackman / 杰瑞米·斯莱特 Jeremy Slater / 斯尼哈·库尔斯 Sneha Koorse / 罗伯特·德·劳伦蒂斯 Robert De Laurentiis / 本·纳蒂维 Ben Nedivi / Eric W. Phillips / 劳伦·施密特 Lauren Schmidt / 马特·沃伯特 Matt Wolpert / 马克·鲍姆贝克 Mark Bomback / 罗森·马歇尔·瑟伯 Rawson Marshall Thurber / 杰拉德·威 Gerard Way

◎主  演 艾伦·佩吉 Ellen Page

      汤姆·霍珀 Tom Hopper

      Emmy Raver-Lampman

      大卫·卡斯塔尼达 David Castaneda

      罗伯特·席安 Robert Sheehan

      艾丹·加拉赫 Aidan Gallagher

      玛丽·布莱姬 Mary J. Blige

      卡梅隆·布莱顿 Cameron Britton

      科鲁姆·费奥瑞 Colm Feore

      亚当·戈德利 Adam Godley

      约翰·马加罗 John Magaro

      Eden Cupid

      Cameron Brodeur

      Ethan Hwang

      Dante Albidone

      T·J·麦吉本 T.J. McGibbon

      Murray Furrow

      Jordan Claire Robbins

      Cody Ray Thompson

      Taylor Jackson

      Kevan Kase

      MinWoo Kevin Lee

      阿什丽·曼德薇 Ashley Madekwe

      Emily Piggford

      Matt Biedel

      乔丹娜·布莱克 Jordana Blake

      蓝宝·桑·法兰克斯 Rainbow Francks

      David Guthrie

      Eli Ham

      Michael Mast




◎简  介  


  在 1989 年的同一天,四十三个婴儿莫名降生,而这些随机成为母亲的女性之前未有任何怀孕迹象,亦无任何关联。其中七个孩子由亿万富翁实业家雷金纳德·哈格里夫斯爵士收养,他创建了伞学院,并培养自己的“孩子”来拯救世界。但事情并未按计划进行。在他们的少年时代,这个家庭分裂了,团队也解散了。时至今日,六位幸存的成员已经三十几岁,他们因为哈格里夫斯去世的消息而重聚。卢瑟、迭戈、艾莉森、克劳斯、万尼亚和五号共同破解父亲神秘死亡的谜团。但由于个性和能力各异,这个关系疏远的家庭再一次濒临破裂,更不要说末日将至的威胁了。

《伞学院》改编自荣获艾斯纳奖的热门漫画和图画小说,该书由杰拉德·威(《My Chemical Romance》)创作编写、加布里埃尔·巴绘制,由 Dark Horse Comics 出版。


Video
ID : 1
Format : AVC
Format/Info : Advanced Video Codec
Format profile : [email protected]
Format settings : CABAC / 4 Ref Frames
Format settings, CABAC : Yes
Format settings, ReFrames : 4 frames
Codec ID : V_MPEG4/ISO/AVC
Duration : 1 h 0 min
Bit rate : 13.0 Mb/s
Width : 1 920 pixels
Height : 960 pixels
Display aspect ratio : 2.000
Frame rate mode : Constant
Frame rate : 23.976 (24000/1001) FPS
Color space : YUV
Chroma subsampling : 4:2:0
Bit depth : 8 bits
Scan type : Progressive
Bits/(Pixel*Frame) : 0.293
Stream size : 5.45 GiB (95%)
Writing library : x264 core 152 r2851kMod ba24899
Encoding settings : cabac=1 / ref=4 / deblock=1:-3:-3 / analyse=0x3:0x133 / me=umh / subme=10 / psy=1 / fade_compensate=0.00 / psy_rd=1.00:0.00 / mixed_ref=1 / me_range=48 / chroma_me=1 / trellis=2 / 8x8dct=1 / cqm=0 / deadzone=21,11 / fast_pskip=0 / chroma_qp_offset=-2 / threads=18 / lookahead_threads=3 / sliced_threads=0 / nr=0 / decimate=0 / interlaced=0 / bluray_compat=0 / constrained_intra=0 / bframes=8 / b_pyramid=2 / b_adapt=2 / b_bias=0 / direct=3 / weightb=1 / open_gop=0 / weightp=2 / keyint=250 / keyint_min=23 / scenecut=40 / intra_refresh=0 / rc=crf / mbtree=0 / crf=17.0000 / qcomp=0.60 / qpmin=0 / qpmax=69 / qpstep=4 / ip_ratio=1.30 / pb_ratio=1.20 / aq=3:0.80
Language : English
Default : Yes
Forced : No

Audio
ID : 2
Format : E-AC-3
Format/Info : Enhanced AC-3
Commercial name : Dolby Digital Plus
Codec ID : A_EAC3
Duration : 1 h 0 min
Bit rate mode : Constant
Bit rate : 640 kb/s
Channel(s) : 6 channels
Channel layout : L R C LFE Ls Rs
Sampling rate : 48.0 kHz
Frame rate : 31.250 FPS (1536 SPF)
Compression mode : Lossy
Stream size : 275 MiB (5%)
Title : English
Language : English
Service kind : Complete Main
Default : Yes
Forced : No

Text #1
ID : 3
Format : UTF-8
Codec ID : S_TEXT/UTF8
Codec ID/Info : UTF-8 Plain Text
Duration : 58 min 3 s
Bit rate : 80 b/s
Count of elements : 956
Stream size : 34.4 KiB (0%)
Title : SDH
Language : English
Default : No
Forced : No

Text #2
ID : 4
Format : UTF-8
Codec ID : S_TEXT/UTF8
Codec ID/Info : UTF-8 Plain Text
Duration : 57 min 58 s
Bit rate : 88 b/s
Count of elements : 722
Stream size : 37.7 KiB (0%)
Language : Arabic
Default : No
Forced : No

Text #3
ID : 5
Format : UTF-8
Codec ID : S_TEXT/UTF8
Codec ID/Info : UTF-8 Plain Text
Duration : 57 min 58 s
Bit rate : 47 b/s
Count of elements : 687
Stream size : 20.3 KiB (0%)
Language : Danish
Default : No
Forced : No

Text #4
ID : 6
Format : UTF-8
Codec ID : S_TEXT/UTF8
Codec ID/Info : UTF-8 Plain Text
Duration : 57 min 50 s
Bit rate : 53 b/s
Count of elements : 731
Stream size : 22.7 KiB (0%)
Language : German
Default : No
Forced : No

Text #5
ID : 7
Format : UTF-8
Codec ID : S_TEXT/UTF8
Codec ID/Info : UTF-8 Plain Text
Duration : 57 min 58 s
Bit rate : 79 b/s
Count of elements : 746
Stream size : 33.7 KiB (0%)
Language : Greek
Default : No
Forced : No

Text #6
ID : 8
Format : UTF-8
Codec ID : S_TEXT/UTF8
Codec ID/Info : UTF-8 Plain Text
Duration : 57 min 58 s
Bit rate : 53 b/s
Count of elements : 735
Stream size : 22.6 KiB (0%)
Language : Spanish
Default : No
Forced : No

Text #7
ID : 9
Format : UTF-8
Codec ID : S_TEXT/UTF8
Codec ID/Info : UTF-8 Plain Text
Duration : 57 min 58 s
Bit rate : 49 b/s
Count of elements : 729
Stream size : 21.1 KiB (0%)
Title : European
Language : Spanish
Default : No
Forced : No

Text #8
ID : 10
Format : UTF-8
Codec ID : S_TEXT/UTF8
Codec ID/Info : UTF-8 Plain Text
Duration : 57 min 58 s
Bit rate : 45 b/s
Count of elements : 603
Stream size : 19.2 KiB (0%)
Language : Finnish
Default : No
Forced : No

Text #9
ID : 11
Format : UTF-8
Codec ID : S_TEXT/UTF8
Codec ID/Info : UTF-8 Plain Text
Duration : 57 min 58 s
Bit rate : 49 b/s
Count of elements : 717
Stream size : 21.2 KiB (0%)
Language : French
Default : No
Forced : No

Text #10
ID : 12
Format : UTF-8
Codec ID : S_TEXT/UTF8
Codec ID/Info : UTF-8 Plain Text
Duration : 57 min 57 s
Bit rate : 87 b/s
Count of elements : 738
Stream size : 37.1 KiB (0%)
Language : Hebrew
Default : No
Forced : No

Text #11
ID : 13
Format : UTF-8
Codec ID : S_TEXT/UTF8
Codec ID/Info : UTF-8 Plain Text
Duration : 57 min 58 s
Bit rate : 51 b/s
Count of elements : 748
Stream size : 21.7 KiB (0%)
Language : Indonesian
Default : No
Forced : No

Text #12
ID : 14
Format : UTF-8
Codec ID : S_TEXT/UTF8
Codec ID/Info : UTF-8 Plain Text
Duration : 57 min 58 s
Bit rate : 51 b/s
Count of elements : 710
Stream size : 21.8 KiB (0%)
Language : Italian
Default : No
Forced : No

Text #13
ID : 15
Format : UTF-8
Codec ID : S_TEXT/UTF8
Codec ID/Info : UTF-8 Plain Text
Duration : 57 min 58 s
Bit rate : 49 b/s
Count of elements : 670
Stream size : 21.0 KiB (0%)
Language : Japanese
Default : No
Forced : No

Text #14
ID : 16
Format : UTF-8
Codec ID : S_TEXT/UTF8
Codec ID/Info : UTF-8 Plain Text
Duration : 57 min 58 s
Bit rate : 64 b/s
Count of elements : 757
Stream size : 27.4 KiB (0%)
Language : Korean
Default : No
Forced : No

Text #15
ID : 17
Format : UTF-8
Codec ID : S_TEXT/UTF8
Codec ID/Info : UTF-8 Plain Text
Duration : 57 min 58 s
Bit rate : 50 b/s
Count of elements : 721
Stream size : 21.6 KiB (0%)
Language : Norwegian Bokmal
Default : No
Forced : No

Text #16
ID : 18
Format : UTF-8
Codec ID : S_TEXT/UTF8
Codec ID/Info : UTF-8 Plain Text
Duration : 57 min 58 s
Bit rate : 44 b/s
Count of elements : 652
Stream size : 19.1 KiB (0%)
Language : Dutch
Default : No
Forced : No

Text #17
ID : 19
Format : UTF-8
Codec ID : S_TEXT/UTF8
Codec ID/Info : UTF-8 Plain Text
Duration : 57 min 58 s
Bit rate : 44 b/s
Count of elements : 640
Stream size : 19.1 KiB (0%)
Language : Polish
Default : No
Forced : No

Text #18
ID : 20
Format : UTF-8
Codec ID : S_TEXT/UTF8
Codec ID/Info : UTF-8 Plain Text
Duration : 57 min 58 s
Bit rate : 47 b/s
Count of elements : 724
Stream size : 20.2 KiB (0%)
Language : Portuguese
Default : No
Forced : No

Text #19
ID : 21
Format : UTF-8
Codec ID : S_TEXT/UTF8
Codec ID/Info : UTF-8 Plain Text
Duration : 57 min 58 s
Bit rate : 53 b/s
Count of elements : 713
Stream size : 22.8 KiB (0%)
Title : Brazilian
Language : Portuguese
Default : No
Forced : No

Text #20
ID : 22
Format : UTF-8
Codec ID : S_TEXT/UTF8
Codec ID/Info : UTF-8 Plain Text
Duration : 57 min 50 s
Bit rate : 56 b/s
Count of elements : 734
Stream size : 23.8 KiB (0%)
Language : Romanian
Default : No
Forced : No

Text #21
ID : 23
Format : UTF-8
Codec ID : S_TEXT/UTF8
Codec ID/Info : UTF-8 Plain Text
Duration : 57 min 58 s
Bit rate : 80 b/s
Count of elements : 675
Stream size : 34.3 KiB (0%)
Language : Russian
Default : No
Forced : No

Text #22
ID : 24
Format : UTF-8
Codec ID : S_TEXT/UTF8
Codec ID/Info : UTF-8 Plain Text
Duration : 57 min 50 s
Bit rate : 46 b/s
Count of elements : 659
Stream size : 19.8 KiB (0%)
Language : Swedish
Default : No
Forced : No

Text #23
ID : 25
Format : UTF-8
Codec ID : S_TEXT/UTF8
Codec ID/Info : UTF-8 Plain Text
Duration : 57 min 58 s
Bit rate : 132 b/s
Count of elements : 752
Stream size : 56.3 KiB (0%)
Language : Thai
Default : No
Forced : No

Text #24
ID : 26
Format : UTF-8
Codec ID : S_TEXT/UTF8
Codec ID/Info : UTF-8 Plain Text
Duration : 57 min 58 s
Bit rate : 53 b/s
Count of elements : 747
Stream size : 22.6 KiB (0%)
Language : Turkish
Default : No
Forced : No

Text #25
ID : 27
Format : UTF-8
Codec ID : S_TEXT/UTF8
Codec ID/Info : UTF-8 Plain Text
Duration : 57 min 50 s
Bit rate : 53 b/s
Count of elements : 743
Stream size : 22.7 KiB (0%)
Title : Simplified
Language : Chinese
Default : No
Forced : No

Text #26
ID : 28
Format : UTF-8
Codec ID : S_TEXT/UTF8
Codec ID/Info : UTF-8 Plain Text
Duration : 57 min 50 s
Bit rate : 55 b/s
Count of elements : 747
Stream size : 23.7 KiB (0%)
Title : Traditional
Language : Chinese
Default : No
Forced : No




    城上风光莺语乱,城下烟波春拍岸。绿杨芳草几时休?泪眼愁肠先已断。岐王宅里寻常见,崔九堂前几度闻。[BT下载][伞学院/TheUmbrellaAcademy第一季][全10集][英语中字][MKV][1080P/2160P][NETFLIX]The argument fails to rule out the possibility that a writer engage in both types of writing as well as other types.

热门电视剧下载

最新电视剧下载

电视剧收视率排行榜