电视剧下载

[BT下载][凡尔赛 Versailles 第三季][全10集][法语中字][BD-MKV][720P/1080P][BD+中文字幕] 剧集 2018 法国 历史 打包

[BT下载][凡尔赛 Versailles 第三季][全10集][法语中字][BD-MKV][720P/1080P][BD+中文字幕] 剧集 2018 法国 历史 打包

  • 版本:高清完整版
  • 发布:

电视剧介绍

    [BT下载][凡尔赛 Versailles 第三季][全10集][法语中字][BD-MKV][720P/1080P][BD+中文字幕] 剧集 2018 法国 历史 打包 奔腾不息盲豪言壮语人瞎马46. 您的笑容是世界上最和煦的春风,您的眼泪是世界上最名贵的珍珠,您的皱纹是辛苦岁月霜雪雨的刻痕;您的画像是勇敢和坚韧的象征。现今,在农村地区还有很多孩子失学。我认为原因之一就是他们的家庭太贫困,而无法供应他们上学。149.野旷天低树,江清月近人。《宿建德江》


◎译  名 凡尔赛 第三季

◎片  名 Versailles Season 3

◎年  代 2018

◎产  地 法国 / 加拿大

◎类  别 剧情 / 传记 / 历史

◎语  言 法语

◎上映日期 2018-04-23(法国)

◎IMDb评分 7.4/10 from 123 users

◎IMDb链接 http://www.imdb.com/title/tt6869512

◎豆瓣评分 8.1/10 from 1359 users

◎豆瓣链接 https://movie.douban.com/subject/27044015/

◎BT之家整理 http://www.支持正版,不提供下载.us/

◎集  数 10

◎片  长 53分钟

◎导  演 理查德·克拉克 Richard Clark / 爱德华·巴瑟杰特 Edward Bazalgette / Pieter Van Hees

◎编  剧 Tim Loane

◎主  演 乔治·布莱顿 George Blagden

      亚历山大·维拉赫斯 Alexander Vlahos

      斯图尔特·鲍曼 Stuart Bowman

      伊万·威廉姆斯 Evan Williams

      艾莉莎·拉索斯基 Elisa Lasowski

      泰格·伦岩 Tygh Runyan

      乔·谢里丹 Joe Sheridan

      马修·麦克诺提 Matthew McNulty

      Steve Cumyn

      安娜·布雷维斯特 Anna Brewster




◎简  介  


  法剧《凡尔赛》最终季。路易十四准备开拓美洲殖民地,菲利普授命审核送去美洲的罪犯名单时,发现了一个秘密,在巴士底狱有一名戴着铁面具的特殊囚犯,他是谁呢?


Video
ID : 1
Format : AVC
Format/Info : Advanced Video Codec
Format profile : [email protected]
Format settings : CABAC / 5 Ref Frames
Format settings, CABAC : Yes
Format settings, ReFrames : 5 frames
Codec ID : V_MPEG4/ISO/AVC
Duration : 59 min 41 s
Bit rate : 4 826 kb/s
Width : 1 280 pixels
Height : 720 pixels
Display aspect ratio : 16:9
Frame rate mode : Constant
Frame rate : 25.000 FPS
Color space : YUV
Chroma subsampling : 4:2:0
Bit depth : 8 bits
Scan type : Progressive
Bits/(Pixel*Frame) : 0.209
Stream size : 2.01 GiB (76%)
Writing library : x264 core 157 r2935 545de2f
Encoding settings : cabac=1 / ref=5 / deblock=1:0:0 / analyse=0x3:0x113 / me=umh / subme=8 / psy=1 / psy_rd=1.00:0.00 / mixed_ref=1 / me_range=16 / chroma_me=1 / trellis=2 / 8x8dct=1 / cqm=0 / deadzone=21,11 / fast_pskip=0 / chroma_qp_offset=-2 / threads=22 / lookahead_threads=3 / sliced_threads=0 / nr=0 / decimate=1 / interlaced=0 / bluray_compat=0 / constrained_intra=0 / bframes=3 / b_pyramid=2 / b_adapt=1 / b_bias=0 / direct=1 / weightb=1 / open_gop=0 / weightp=2 / keyint=250 / keyint_min=25 / scenecut=40 / intra_refresh=0 / rc_lookahead=50 / rc=2pass / mbtree=1 / bitrate=4826 / ratetol=1.0 / qcomp=0.60 / qpmin=0 / qpmax=69 / qpstep=4 / cplxblur=20.0 / qblur=0.5 / ip_ratio=1.40 / aq=1:1.00
Default : Yes
Forced : No

Audio
ID : 2
Format : DTS
Format/Info : Digital Theater Systems
Codec ID : A_DTS
Duration : 59 min 41 s
Bit rate mode : Constant
Bit rate : 1 509 kb/s
Channel(s) : 6 channels
Channel layout : C L R Ls Rs LFE
Sampling rate : 48.0 kHz
Frame rate : 93.750 FPS (512 SPF)
Bit depth : 24 bits
Compression mode : Lossy
Stream size : 644 MiB (24%)
Language : English
Default : Yes
Forced : No

Menu
00:00:00.000 : en:00:00:00.000
00:04:50.160 : en:00:04:50.160
00:15:39.880 : en:00:15:39.880
00:25:53.360 : en:00:25:53.360
00:36:42.480 : en:00:36:42.480
00:45:52.160 : en:00:45:52.160
00:58:27.240 : en:00:58:27.240




    兰芷满汀洲,游丝横路。罗袜尘生步迎顾,整鬟颦黛,脉脉两情难语。细风吹柳絮、人南渡。孤灯寒照雨,深竹暗浮烟。[BT下载][凡尔赛Versailles第三季][全10集][法语中字][BDMKV][720P/1080P][BD+中文字幕]Unless there is a common realization of (general commitment to)…, it is very likely (the chances are good) that…

热门电视剧下载

最新电视剧下载

电视剧收视率排行榜